#TITLE:Wan Mei Bi Li;
#SUBTITLE:;
#ARTIST:Rainie Yang;
#TITLETRANSLIT:Wan Mei Bi Li;
#SUBTITLETRANSLIT:;
#ARTISTTRANSLIT:Duong Thua Lam;
#CREDIT:;
#BANNER:Wan Mei Bi Li-bn.png;
#BACKGROUND:Wan Mei Bi Li-bg.png;
#LYRICSPATH:;
#CDTITLE:pm4cd.png;
#MUSIC:Wan Mei Bi Li.mp3;
#OFFSET:0.960;
#SAMPLESTART:55.010;
#SAMPLELENGTH:20.000;
#SELECTABLE:YES;
#BPMS:0.000=98.020;
#STOPS:;
#BGCHANGES:0.000=Wan Mei Bi Li.avi=1.000=1=1=0,
99999=-nosongbg-=1.000=0=0=0 // don't automatically add -songbackground-
;
// cache tags:
#FIRSTBEAT:2.000;
#LASTBEAT:384.500;
#SONGFILENAME:Songs/Music V.I.P ^_^/Wan Mei Bi Li/Wan Mei Bi Li.sm;
#HASMUSIC:1;
#HASBANNER:1;
#MUSICLENGTH:241.115;
// end cache tags

//---------------dance-single - ----------------
#NOTES:
     dance-single:
     :
     Hard:
     9:
     0.800,0.797,1.000,0.091,0.350,819.000,466.000,22.000,0.000,92.000:
0000
0000
0000
0000
0000
0000
0000
0000
1001
0000
0000
0000
0110
0000
0000
0101
,
0010
1100
0000
0000
0101
0000
2010
0000
0011
0000
0000
0000
0110
0000
0101
3000
,
0101
0000
0000
0011
1100
0000
1100
0000
1111
0000
0000
0000
0011
0000
0000
0100
,
0011
0100
1000
0000
0110
0000
0001
0000
1110
0000
0000
0000
1010
0000
0000
0001
,
1010
0100
1000
0000
0011
0000
0100
0000
1011
0000
0000
0000
1100
0000
0000
0100
,
0011
0000
0110
0000
0011
0000
1010
0000
1110
0000
0000
0000
0011
0000
0000
1000
,
0101
0010
1000
0000
1000
0100
0010
0000
1100
0000
0000
0000
0110
0000
0000
0001
,
1010
0001
0010
0000
0011
0000
1000
0000
0101
0000
0000
0000
1100
0000
0000
0100
,
1001
0100
0010
0000
0011
0000
1000
0000
0101
0000
1000
0000
1100
0000
0000
1000
,
0101
0000
0101
0000
0010
0000
1100
0000
0110
0000
0001
0000
0110
0000
0000
0010
,
1100
0010
0001
0000
1010
0000
0100
0000
0011
0000
0000
0000
0110
0000
0000
1000
,
0101
0010
0001
0000
0110
0000
1000
0000
1100
0000
0001
0000
1010
0000
0000
0100
,
1001
0010
0100
0000
0101
0000
0010
0000
1100
0000
0010
0000
0101
0000
0101
0000
,
0101
0110
1010
1010
1010
0110
0011
0011
,
0011
0000
0000
1000
0110
0001
0010
0000
1001
0000
0000
0000
0110
0000
0000
0001
,
1100
0010
0001
0000
1010
0000
0100
0000
0011
0000
0100
0000
1001
0000
0000
0001
,
0110
1000
0100
0000
0101
0000
0010
0000
1001
0000
0010
0000
1100
0000
1100
0000
,
1100
1001
0011
0011
0011
1001
0110
0110
,
0110
0000
1000
0000
0100
0000
0001
0000
1020
0000
0000
0000
0101
0000
0000
0100
,
1001
0100
1000
0000
1001
0030
0001
0010
0101
0010
0001
0000
0101
0000
1000
0100
,
1010
0100
1000
0000
1010
0000
0100
0000
0011
0000
1000
0000
0110
0000
0000
0001
,
1010
0101
1010
0100
1001
0010
0100
0011
,
0011
0000
0000
1100
1100
0000
0110
0000
1111
0000
1000
0000
0101
0000
0010
0000
,
1100
0000
1001
0000
0110
0000
1010
0000
0101
0000
0000
0000
0110
0000
0000
0010
,
0101
0010
0100
0000
1001
0000
0010
0000
1100
0000
0000
0000
0110
0000
0000
1001
,
0110
0000
0101
0000
1010
0000
0100
0000
0011
0000
0000
0000
1100
0000
0000
0001
,
1010
0001
0100
0000
0011
0000
0001
0010
1101
0000
1000
0100
1011
0000
0100
1000
,
0111
0000
0101
0000
0101
0000
0010
0000
1100
0000
0001
0000
0110
0000
0000
1000
,
0101
1000
0100
0000
1100
0000
0001
0000
1010
0000
0000
0000
0011
0000
1000
0100
,
1010
0110
0101
0010
2100
0000
0101
0011
,
0011
0000
0000
0101
0011
0000
0101
3000
1102
0000
0000
0000
1010
0000
0000
0000
,
1100
0000
1000
0000
0010
0000
0100
0003
1021
0000
0000
0000
1100
0000
1000
0100
,
0001
0000
0000
0000
0100
0001
1000
0030
0211
0000
1000
0000
0010
0000
1000
0000
,
1021
1001
1301
0101
2130
0000
0011
0000
,
0101
0000
0010
0000
0001
0010
0100
3010
1001
0000
0000
0000
0220
0000
0000
0000
,
0000
0000
0000
0000
0000
0000
0000
0000
0000
0330
0000
0000
1100
0000
1000
0000
1000
0000
1000
0000
1000
0000
0000
0000
1110
0000
0000
0000
0000
0000
0000
0000
0000
0000
0000
0000
0001
0000
0000
0000
0000
0000
0000
0000
0000
0000
0000
0000
,
1001
0100
0001
0010
1100
0001
0110
0110
,
0110
1001
1010
1010
1010
1001
0101
0101
,
0101
0000
0000
1100
0011
0000
0001
0000
1001
0000
0010
0000
0101
0000
0000
0001
,
1010
0100
0010
0000
0011
0000
0100
0000
1001
0000
0000
0000
1100
0000
0000
0100
,
1010
0100
1000
0000
0101
0010
1000
0100
0012
0000
0000
0000
1100
0000
0000
0100
,
1013
0000
0110
0000
0101
0000
0011
0000
1200
0000
0000
0000
0011
0000
0000
0001
,
1310
0100
0010
0000
0001
0000
0010
0000
1100
0000
0010
0000
0001
0000
0000
1000
,
0110
0000
0011
0000
1100
0000
0001
0010
0101
0010
0100
0000
1010
0000
1000
0100
,
1010
0100
0010
0000
0101
0000
0000
0000
1100
0000
0010
0000
0001
0000
0000
1000
,
0011
0110
1100
1001
1010
0100
0011
0110
,
0110
0000
0000
0110
1100
0000
0110
0000
1110
0001
0010
0000
1101
0010
0001
0000
,
1011
0100
1000
0000
0101
0000
0010
0000
1100
0000
0100
0000
1010
0000
0000
0010
,
1100
0010
0100
0000
0101
0000
0010
0000
1100
0000
0000
0000
1001
0000
0000
0100
,
0011
0000
1100
0000
0101
0000
0110
0000
1100
0000
0000
0000
0101
0000
0000
0001
,
1100
0010
0001
0000
0101
0000
0010
0100
1011
0000
0100
0010
1101
0000
0001
0010
,
1101
0000
0010
0000
1100
0000
0110
0000
0011
0000
1000
0000
0101
0000
0000
0010
,
0101
1000
0100
0000
0110
0000
1000
0000
0101
0000
0000
0000
0110
0000
1000
0100
,
0011
0100
1000
0000
0101
0000
0010
0000
1001
0000
0000
0000
0110
0000
1100
0000
,
1100
0000
0000
0110
1001
0000
0100
0000
1011
0000
0000
0000
1010
0000
0000
1000
,
0101
0010
0100
0000
1001
0000
0001
0010
1100
0000
1000
0100
0011
0000
0001
0010
,
1100
0000
0010
0000
0101
0000
0010
0000
1100
0000
0000
0000
0110
0000
0000
0001
,
1010
0100
1000
0000
0101
0000
0010
0000
1100
0000
0000
0000
0110
0000
0011
0000
,
0011
0000
0000
1010
0101
0000
0010
0000
2100
0000
0010
0000
0001
0000
0010
0000
,
0101
0000
0010
0000
0001
0000
0010
3000
0201
0000
0010
0000
0001
0000
1000
0000
,
0011
0000
1000
0000
0010
0000
0001
0300
1020
0000
0001
0000
0100
0000
1000
0000
,
0101
0000
1100
0000
0001
0000
1100
0030
1002
0000
0010
0000
0100
0000
1010
0000
,
1010
0000
0000
0110
1100
0000
1100
0003
2010
0000
0001
0000
0010
0000
0100
0000
,
0011
0000
0100
0000
0001
0000
0010
3000
0102
0000
1000
0000
0010
0000
0100
0000
,
1010
0000
0000
0000
0000
0000
0000
0000
1100
0000
0000
0000
0010
0000
0000
0000
1100
0000
0000
0000
0000
0000
0000
0000
0010
0000
0000
0000
0003
0000
0001
0010
0201
0000
0000
0000
0000
0000
0000
0000
0010
0000
0000
0000
0000
0000
0000
0000
1000
0000
0000
0000
0000
0000
0000
0000
0001
0000
0000
0000
0000
0000
0010
0001
,
1010
0000
0000
0000
0000
0000
0000
0000
0001
0000
0000
0000
0000
0000
0000
0000
0010
0000
0000
0000
0000
0000
0000
0000
1000
0000
0000
0000
0300
0000
0010
0100
1020
0000
0000
0000
0000
0000
0000
0000
0100
0000
0000
0000
0000
0000
0000
0000
1000
0000
0000
0000
0000
0000
0000
0000
0101
0000
0000
0000
0000
0000
1000
0100
,
1001
0000
0100
0000
0001
0000
1000
0030
2100
0000
0110
0000
0011
0000
0000
0000
,
0011
0000
0101
0000
0110
0000
0101
3010
1101
0000
1010
0100
1011
0000
0101
0010
,
1101
0000
0110
0000
0011
0000
1000
0000
0101
0000
0000
0000
0110
0000
1000
0100
,
1001
0000
0000
0001
1100
0001
0010
0000
0101
0000
0000
0000
1010
0000
0000
0010
,
0101
0101
1010
0001
0110
0000
0101
0110
,
0110
0000
0000
1010
0101
0000
0011
0100
1011
0000
0110
0001
1110
0000
0110
1000
,
0111
0000
1001
0000
0110
0000
0010
0000
0101
0000
0010
0000
1001
0000
0000
1000
,
0011
0100
0010
0000
1100
0000
0100
0000
0101
0000
0000
0000
1010
0000
0001
0010
,
1100
0010
0100
0000
1010
0000
0100
0000
1001
0000
0000
0000
1100
0000
0010
0000
,
0101
0000
0000
0010
0101
0000
1100
0000
1100
0000
0000
0000
0110
0000
0000
0100
,
0011
1000
0100
0000
1010
0000
0100
0000
0101
0010
0001
0000
1010
0100
1000
0000
,
0110
0000
0010
0000
1001
0000
1000
0000
1100
0000
0000
0000
1001
0000
0000
0100
,
1010
0100
0001
0000
0110
0000
1001
0000
0011
0000
0000
0000
0101
0000
0110
0000
,
0110
0000
0000
0010
0101
0000
0110
0000
1010
0100
0010
0000
0101
0010
0100
0000
,
1010
0000
0011
0000
1100
0000
0010
0000
0101
0000
1000
0000
1001
0000
0001
0010
,
1100
0000
0010
0000
1100
0000
0100
0000
0101
0000
0000
0000
0110
0000
1000
0100
,
0101
0010
1000
0000
1001
0000
0101
0000
0011
0000
0000
0000
0110
0000
1100
0000
,
1100
0000
0000
0101
0011
0000
0011
0100
1011
0000
1100
0010
1101
0000
0110
0001
,
1110
0000
0110
1000
0111
0000
1001
0000
0110
0000
0100
0000
1010
0000
0000
0110
,
1001
0010
1100
0000
1100
0000
0100
0000
0120
0000
1000
0000
1100
0000
0001
0100
,
1001
1000
0101
0000
1130
0000
0011
0000
1010
0000
0000
0000
1001
0000
1100
0010
,
1100
0000
0000
0110
0101
0000
0101
0010
1101
0000
1010
0100
1011
0000
0101
1000
,
0111
0000
0101
1000
0111
0000
0110
0000
1100
0000
0000
0000
1010
0000
0000
1010
,
0101
1000
0110
0000
1100
0000
0110
0000
0011
0000
0000
0000
0110
0000
0000
0110
,
1100
0000
0101
0000
0011
0000
1100
0000
1001
0000
0000
0000
0110
0000
0101
0010
,
0101
0000
0000
0011
0110
0000
1010
0000
1111
0000
0000
0000
0110
0000
0000
1000
,
0101
0010
1001
0000
1010
0000
1100
0010
1101
0000
1010
0001
1110
0000
1100
0001
,
1110
0000
0001
0000
1100
0000
0010
0000
1101
0000
0000
0000
0110
0000
0000
1000
,
0011
0100
1010
0000
1001
0000
0101
0000
1110
0000
0000
0000
0110
0000
1001
0000
,
1001
0000
0000
0000
0000
0000
0010
0000
1001
0000
0100
0000
0001
0000
0000
0000
1000
0100
1000
0100
0000
0000
0000
0000
0001
0000
0010
0000
0100
0000
1000
0000
,
0100
0010
0001
0000
0000
0000
0000
0000
0000
0000
0000
0000
0000
0000
0000
0000
;

//---------------dance-single - ----------------
#NOTES:
     dance-single:
     :
     Medium:
     1:
     0.000,0.000,0.000,0.000,0.000,0.000,0.000,0.000,0.000,0.000:
0000
0000
0000
0000
;
